The.Umbrella.Academy.S02.720p.NF.WEBRip.DDP5.1.x264-MIXED

seeders: 399
leechers: 201
updated:
Added by Dakshvv in TV > HD

Download Fast Safe Anonymous
movies, software, shows...
  • Downloads: 1883
  • Language: English

Files

The.Umbrella.Academy.S02.720p.NF.WEBRip.DDP5.1.x264-MIXED[rartv]
  • RARBG.txt (0.0 KB)
  • The.Umbrella.Academy.S02E01.720p.WEB.H264-FiASCO.mkv (1.0 GB)
  • The.Umbrella.Academy.S02E02.720p.WEB.H264-BTX.mkv (767.5 MB)
  • The.Umbrella.Academy.S02E03.720p.WEB.H264-FiASCO.mkv (1.2 GB)
  • The.Umbrella.Academy.S02E04.720p.WEB.H264-FiASCO.mkv (1.1 GB)
  • The.Umbrella.Academy.S02E05.720p.WEB.H264-FiASCO.mkv (782.1 MB)
  • The.Umbrella.Academy.S02E06.720p.WEB.H264-FiASCO.mkv (978.2 MB)
  • The.Umbrella.Academy.S02E07.720p.WEB.H264-BTX.mkv (798.9 MB)
  • The.Umbrella.Academy.S02E08.720p.WEB.H264-BTX.mkv (746.0 MB)
  • The.Umbrella.Academy.S02E09.720p.WEB.H264-BTX.mkv (956.7 MB)
  • The.Umbrella.Academy.S02E10.720p.WEB.H264-BTX.mkv (1.1 GB)

Description

The.Umbrella.Academy.S02.720p.NF.WEBRip.DDP5.1.x264-MIXED




Code:


Video
ID : 1
Format : AVC
Format/Info : Advanced Video Codec
Format profile : [email protected]
Format settings : CABAC / 3 Ref Frames
Format settings, CABAC : Yes
Format settings, Reference frames : 3 frames
Codec ID : V_MPEG4/ISO/AVC
Duration : 48 min 15 s
Bit rate mode : Variable
Bit rate : 2 870 kb/s
Maximum bit rate : 4 305 kb/s
Width : 1 280 pixels
Height : 720 pixels
Display aspect ratio : 16:9
Frame rate mode : Constant
Frame rate : 23.976 (24000/1001) FPS
Color space : YUV
Chroma subsampling : 4:2:0
Bit depth : 8 bits
Scan type : Progressive
Bits/(Pixel*Frame) : 0.130
Stream size : 962 MiB (81%)
Writing library : x264 core 148 r2722 1b0121b
Encoding settings : cabac=1 / ref=3 / deblock=1:0:0 / analyse=0x1:0x111 / me=umh / subme=10 / psy=1 / psy_rd=1.00:0.00 / mixed_ref=1 / me_range=24 / chroma_me=1 / trellis=2 / 8x8dct=0 / cqm=0 / deadzone=21,11 / fast_pskip=1 / chroma_qp_offset=-2 / threads=8 / lookahead_threads=1 / sliced_threads=0 / nr=0 / decimate=1 / interlaced=0 / bluray_compat=0 / stitchable=1 / constrained_intra=0 / bframes=2 / b_pyramid=0 / b_adapt=2 / b_bias=0 / direct=3 / weightb=1 / open_gop=0 / weightp=2 / keyint=250 / keyint_min=23 / scenecut=0 / intra_refresh=0 / rc_lookahead=48 / rc=2pass / mbtree=1 / bitrate=2870 / ratetol=1.0 / qcomp=0.50 / qpmin=6 / qpmax=51 / qpstep=4 / cplxblur=20.0 / qblur=0.5 / vbv_maxrate=4305 / vbv_bufsize=5740 / nal_hrd=vbr / filler=0 / ip_ratio=1.40 / aq=1:1.00
Default : Yes
Forced : No

Audio
ID : 2
Format : E-AC-3
Format/Info : Enhanced AC-3
Commercial name : Dolby Digital Plus
Codec ID : A_EAC3
Duration : 48 min 15 s
Bit rate mode : Constant
Bit rate : 640 kb/s
Channel(s) : 6 channels
Channel layout : L R C LFE Ls Rs
Sampling rate : 48.0 kHz
Frame rate : 31.250 FPS (1536 SPF)
Compression mode : Lossy
Stream size : 221 MiB (19%)
Language : English
Service kind : Complete Main
Default : Yes
Forced : No

Text #1
ID : 3
Format : UTF-8
Codec ID : S_TEXT/UTF8
Codec ID/Info : UTF-8 Plain Text
Duration : 46 min 41 s
Bit rate : 72 b/s
Count of elements : 576
Stream size : 24.7 KiB (0%)
Title : Arabic
Language : Arabic
Default : No
Forced : No

Text #2
ID : 4
Format : UTF-8
Codec ID : S_TEXT/UTF8
Codec ID/Info : UTF-8 Plain Text
Duration : 46 min 45 s
Bit rate : 39 b/s
Count of elements : 571
Stream size : 13.4 KiB (0%)
Title : Czech
Language : Czech
Default : No
Forced : No

Text #3
ID : 5
Format : UTF-8
Codec ID : S_TEXT/UTF8
Codec ID/Info : UTF-8 Plain Text
Duration : 46 min 41 s
Bit rate : 37 b/s
Count of elements : 516
Stream size : 12.9 KiB (0%)
Title : Danish
Language : Danish
Default : No
Forced : No

Text #4
ID : 6
Format : UTF-8
Codec ID : S_TEXT/UTF8
Codec ID/Info : UTF-8 Plain Text
Duration : 46 min 41 s
Bit rate : 40 b/s
Count of elements : 548
Stream size : 13.9 KiB (0%)
Title : German
Language : German
Default : No
Forced : No

Text #5
ID : 7
Format : UTF-8
Codec ID : S_TEXT/UTF8
Codec ID/Info : UTF-8 Plain Text
Duration : 46 min 41 s
Bit rate : 66 b/s
Count of elements : 563
Stream size : 22.6 KiB (0%)
Title : Greek
Language : Greek
Default : No
Forced : No

Text #6
ID : 8
Format : UTF-8
Codec ID : S_TEXT/UTF8
Codec ID/Info : UTF-8 Plain Text
Duration : 45 min 52 s
Bit rate : 67 b/s
Count of elements : 793
Stream size : 22.7 KiB (0%)
Title : English [SDH]
Language : English
Default : No
Forced : No

Text #7
ID : 9
Format : UTF-8
Codec ID : S_TEXT/UTF8
Codec ID/Info : UTF-8 Plain Text
Duration : 46 min 41 s
Bit rate : 40 b/s
Count of elements : 547
Stream size : 13.9 KiB (0%)
Title : Spanish
Language : Spanish
Default : No
Forced : No

Text #8
ID : 10
Format : UTF-8
Codec ID : S_TEXT/UTF8
Codec ID/Info : UTF-8 Plain Text
Duration : 46 min 41 s
Bit rate : 39 b/s
Count of elements : 548
Stream size : 13.3 KiB (0%)
Title : European Spanish
Language : Spanish
Default : No
Forced : No

Text #9
ID : 11
Format : UTF-8
Codec ID : S_TEXT/UTF8
Codec ID/Info : UTF-8 Plain Text
Duration : 46 min 43 s
Bit rate : 37 b/s
Count of elements : 477
Stream size : 12.9 KiB (0%)
Title : Finnish
Language : Finnish
Default : No
Forced : No

Text #10
ID : 12
Format : UTF-8
Codec ID : S_TEXT/UTF8
Codec ID/Info : UTF-8 Plain Text
Duration : 46 min 41 s
Bit rate : 37 b/s
Count of elements : 513
Stream size : 12.9 KiB (0%)
Title : French
Language : French
Default : No
Forced : No

Text #11
ID : 13
Format : UTF-8
Codec ID : S_TEXT/UTF8
Codec ID/Info : UTF-8 Plain Text
Duration : 46 min 41 s
Bit rate : 68 b/s
Count of elements : 554
Stream size : 23.4 KiB (0%)
Title : Hebrew
Language : Hebrew
Default : No
Forced : No

Text #12
ID : 14
Format : UTF-8
Codec ID : S_TEXT/UTF8
Codec ID/Info : UTF-8 Plain Text
Duration : 46 min 41 s
Bit rate : 38 b/s
Count of elements : 509
Stream size : 13.2 KiB (0%)
Title : Hungarian
Language : Hungarian
Default : No
Forced : No

Text #13
ID : 15
Format : UTF-8
Codec ID : S_TEXT/UTF8
Codec ID/Info : UTF-8 Plain Text
Duration : 46 min 43 s
Bit rate : 41 b/s
Count of elements : 571
Stream size : 14.1 KiB (0%)
Title : Indonesian
Language : Indonesian
Default : No
Forced : No

Text #14
ID : 16
Format : UTF-8
Codec ID : S_TEXT/UTF8
Codec ID/Info : UTF-8 Plain Text
Duration : 46 min 41 s
Bit rate : 40 b/s
Count of elements : 505
Stream size : 13.7 KiB (0%)
Title : Italian
Language : Italian
Default : No
Forced : No

Text #15
ID : 17
Format : UTF-8
Codec ID : S_TEXT/UTF8
Codec ID/Info : UTF-8 Plain Text
Duration : 46 min 43 s
Bit rate : 39 b/s
Count of elements : 547
Stream size : 13.7 KiB (0%)
Title : Japanese
Language : Japanese
Default : No
Forced : No

Text #16
ID : 18
Format : UTF-8
Codec ID : S_TEXT/UTF8
Codec ID/Info : UTF-8 Plain Text
Duration : 46 min 43 s
Bit rate : 52 b/s
Count of elements : 583
Stream size : 17.9 KiB (0%)
Title : Korean
Language : Korean
Default : No
Forced : No

Text #17
ID : 19
Format : UTF-8
Codec ID : S_TEXT/UTF8
Codec ID/Info : UTF-8 Plain Text
Duration : 46 min 41 s
Bit rate : 41 b/s
Count of elements : 447
Stream size : 14.2 KiB (0%)
Title : Norwegian
Language : Norwegian Bokmal
Default : No
Forced : No

Text #18
ID : 20
Format : UTF-8
Codec ID : S_TEXT/UTF8
Codec ID/Info : UTF-8 Plain Text
Duration : 46 min 41 s
Bit rate : 34 b/s
Count of elements : 490
Stream size : 11.8 KiB (0%)
Title : Dutch
Language : Dutch
Default : No
Forced : No

Text #19
ID : 21
Format : UTF-8
Codec ID : S_TEXT/UTF8
Codec ID/Info : UTF-8 Plain Text
Duration : 46 min 41 s
Bit rate : 39 b/s
Count of elements : 559
Stream size : 13.4 KiB (0%)
Title : Polish
Language : Polish
Default : No
Forced : No

Text #20
ID : 22
Format : UTF-8
Codec ID : S_TEXT/UTF8
Codec ID/Info : UTF-8 Plain Text
Duration : 46 min 42 s
Bit rate : 41 b/s
Count of elements : 564
Stream size : 14.1 KiB (0%)
Title : Portuguese
Language : Portuguese
Default : No
Forced : No

Text #21
ID : 23
Format : UTF-8
Codec ID : S_TEXT/UTF8
Codec ID/Info : UTF-8 Plain Text
Duration : 46 min 41 s
Bit rate : 42 b/s
Count of elements : 555
Stream size : 14.4 KiB (0%)
Title : Portuguese Brazilian
Language : Portuguese
Default : No
Forced : No

Text #22
ID : 24
Format : UTF-8
Codec ID : S_TEXT/UTF8
Codec ID/Info : UTF-8 Plain Text
Duration : 45 min 54 s
Bit rate : 44 b/s
Count of elements : 508
Stream size : 14.9 KiB (0%)
Title : Romanian
Language : Romanian
Default : No
Forced : No

Text #23
ID : 25
Format : UTF-8
Codec ID : S_TEXT/UTF8
Codec ID/Info : UTF-8 Plain Text
Duration : 46 min 43 s
Bit rate : 70 b/s
Count of elements : 545
Stream size : 24.1 KiB (0%)
Title : Russian
Language : Russian
Default : No
Forced : No

Text #24
ID : 26
Format : UTF-8
Codec ID : S_TEXT/UTF8
Codec ID/Info : UTF-8 Plain Text
Duration : 46 min 43 s
Bit rate : 39 b/s
Count of elements : 498
Stream size : 13.5 KiB (0%)
Title : Swedish
Language : Swedish
Default : No
Forced : No

Text #25
ID : 27
Format : UTF-8
Codec ID : S_TEXT/UTF8
Codec ID/Info : UTF-8 Plain Text
Duration : 46 min 41 s
Bit rate : 103 b/s
Count of elements : 576
Stream size : 35.5 KiB (0%)
Title : Thai
Language : Thai
Default : No
Forced : No

Text #26
ID : 28
Format : UTF-8
Codec ID : S_TEXT/UTF8
Codec ID/Info : UTF-8 Plain Text
Duration : 46 min 41 s
Bit rate : 40 b/s
Count of elements : 504
Stream size : 13.8 KiB (0%)
Title : Turkish
Language : Turkish
Default : No
Forced : No

Text #27
ID : 29
Format : UTF-8
Codec ID : S_TEXT/UTF8
Codec ID/Info : UTF-8 Plain Text
Duration : 46 min 41 s
Bit rate : 57 b/s
Count of elements : 548
Stream size : 19.7 KiB (0%)
Title : Vietnamese
Language : Vietnamese
Default : No
Forced : No

Text #28
ID : 30
Format : UTF-8
Codec ID : S_TEXT/UTF8
Codec ID/Info : UTF-8 Plain Text
Duration : 46 min 41 s
Bit rate : 48 b/s
Count of elements : 573
Stream size : 16.7 KiB (0%)
Title : Chinese Simplified
Language : Chinese
Default : No
Forced : No

Text #29
ID : 31
Format : UTF-8
Codec ID : S_TEXT/UTF8
Codec ID/Info : UTF-8 Plain Text
Duration : 46 min 41 s
Bit rate : 45 b/s
Count of elements : 573
Stream size : 15.6 KiB (0%)
Title : Chinese Traditional
Language : Chinese
Default : No
Forced : No







Download torrent
9.3 GB
seeders:399
leechers:201
The.Umbrella.Academy.S02.720p.NF.WEBRip.DDP5.1.x264-MIXED


Trackers

tracker name
http://tracker.trackerfix.com:80/announce
udp://9.rarbg.me:2860/announce
udp://9.rarbg.to:2790/announce
µTorrent compatible trackers list

Download torrent
9.3 GB
seeders:399
leechers:201
The.Umbrella.Academy.S02.720p.NF.WEBRip.DDP5.1.x264-MIXED


Torrent hash: EF099896C8C67EF669CE4567139219C7D3A8FC0D